高清范

百度 论坛搜索
分享到:
发表于 2017-9-15 10:50 | 显示全部楼层 |阅读模式

101116.28491445_1000X1000.jpg 101112.77738274_1000X1000.jpg

◎译  名 神奇女侠/神力女超人(台)
◎片  名 Wonder Woman
◎年  代 2017
◎产  地 美国
◎类  别 动作/奇幻/冒险
◎语  言 英语
◎上映日期 2017-05-30(香港/台湾)/2017-06-02(中国大陆)/2017-06-02(美国)
◎IMDb评分  7.7/10 from 261,039 users
◎IMDb链接  http://www.imdb.com/title/tt0451279/
◎豆瓣评分 7.1/10 from 178,890 users
◎豆瓣链接 https://movie.douban.com/subject/1578714/
◎BT之家整理 http://www.btbtt.me/
◎片  长 141分钟
◎导  演 派蒂·杰金斯 Patty Jenkins
◎主  演 盖尔·加朵 Gal Gadot
      克里斯·派恩 Chris Pine
      康妮·尼尔森 Connie Nielsen
      罗宾·怀特 Robin Wright
      丹尼·赫斯顿 Danny Huston
      大卫·休里斯 David Thewlis
      萨伊德·塔格马奥 Saïd Taghmaoui
      艾文·布莱纳 Ewen Bremner
      尤金·布雷弗·洛克 Eugene Brave Rock
      露茜·戴维斯 Lucy Davis
      埃琳纳·安娜亚 Elena Anaya
      莉莉·阿斯佩尔 Lilly Aspell
      艾米丽·凯里 Emily Carey
      丽莎·洛文·孔斯利 Lisa Loven Kongsli
      安·奥戈博莫 Ann Ogbomo
      杜晨·科洛斯 Doutzen Kroes

◎简  介

  戴安娜(盖尔·加朵 Gal Gadot 饰)是女王希波吕忒(康妮·尼尔森 Connie Nielsen 饰)的女儿,自幼生活在天堂岛上。巨大的屏障将这座岛屿同外界的纷纷扰扰隔开犹如一个世外桃源,而岛上生活着的亦都是女性。在女武官安提奥普(罗宾·莱特 Robin Wright 饰)的教导之下,戴安娜习得了高强的武艺,而她的体内,似乎隐藏着某种强大的未知力量。
  一场意外中,一位名为史蒂夫(克里斯·派恩 Chris Pine 饰)的男子来到了岛上,从他口中,戴安娜得知外面的世界正在经历战争的磨难,而造成这一切的罪魁祸首,是战神阿瑞斯(大卫·休里斯 David Thewlis 饰)。为了拯救人类于水火之中,戴安娜依然拿起了长剑与盾牌,发誓要彻底摧毁阿瑞斯的阴谋。

Video
ID                                       : 1
Format                                   : AVC
Format/Info                              : Advanced Video Codec
Format profile                           : High@L4.1
Format settings, CABAC                   : Yes
Format settings, ReFrames                : 3 frames
Codec ID                                 : V_MPEG4/ISO/AVC
Duration                                 : 2 h 21 min
Nominal bit rate                         : 15.5 Mb/s
Width                                    : 1 920 pixels
Height                                   : 1 080 pixels
Display aspect ratio                     : 16:9
Frame rate mode                          : Constant
Frame rate                               : 23.976 (24000/1001) FPS
Color space                              : YUV
Chroma subsampling                       : 4:2:0
Bit depth                                : 8 bits
Scan type                                : Progressive
Bits/(Pixel*Frame)                       : 0.312
Title                                    : Wonder.Woman.2017.3D.1080p.BluRay.Half-SBS.x264.DTS-HD.MA.7.1-FGT
Writing library                          : x264 core 148
Encoding settings                        : cabac=1 / ref=3 / deblock=1:-1:-1 / analyse=0x3:0 / me=hex / subme=5 / psy=1 / psy_rd=1.00:0.00 / mixed_ref=0 / me_range=16 / chroma_me=1 / trellis=1 / 8x8dct=1 / cqm=0 / deadzone=21,11 / fast_pskip=0 / chroma_qp_offset=0 / threads=8 / lookahead_threads=2 / sliced_threads=0 / nr=0 / decimate=1 / interlaced=0 / bluray_compat=0 / constrained_intra=0 / bframes=2 / b_pyramid=0 / b_adapt=1 / b_bias=0 / direct=1 / weightb=0 / open_gop=0 / weightp=0 / keyint=24 / keyint_min=2 / scenecut=40 / intra_refresh=0 / rc=abr / mbtree=0 / bitrate=15500 / ratetol=1.0 / qcomp=0.60 / qpmin=0 / qpmax=69 / qpstep=4 / ip_ratio=1.40 / pb_ratio=1.30 / aq=1:1.00
Default                                  : Yes
Forced                                   : No
Color range                              : Limited
Color primaries                          : BT.709
Transfer characteristics                 : BT.709
Matrix coefficients                      : BT.709

Audio #1
ID                                       : 2
Format                                   : DTS
Format/Info                              : Digital Theater Systems
Format profile                           : MA / Core
Mode                                     : 16
Format settings, Endianness              : Big
Codec ID                                 : A_DTS
Duration                                 : 2 h 21 min
Bit rate mode                            : Variable / Constant
Bit rate                                 : Unknown / 1 509 kb/s
Channel(s)                               : 8 channels / 6 channels
Channel positions                        : Front: L C R, Side: L R, Back: L R, LFE / Front: L C R, Side: L R, LFE
Sampling rate                            : 48.0 kHz
Frame rate                               : 93.750 FPS (512 spf)
Bit depth                                : 24 bits
Compression mode                         : Lossless / Lossy
Title                                    : Wonder.Woman.2017.3D.1080p.BluRay.Half-SBS.x264.DTS-HD.MA.7.1-FGT
Language                                 : English
Default                                  : Yes
Forced                                   : No

Audio #2
ID                                       : 3
Format                                   : DTS
Format/Info                              : Digital Theater Systems
Mode                                     : 16
Format settings, Endianness              : Big
Codec ID                                 : A_DTS
Duration                                 : 2 h 21 min
Bit rate mode                            : Constant
Bit rate                                 : 1 509 kb/s
Channel(s)                               : 6 channels
Channel positions                        : Front: L C R, Side: L R, LFE
Sampling rate                            : 48.0 kHz
Frame rate                               : 93.750 FPS (512 spf)
Bit depth                                : 24 bits
Compression mode                         : Lossy
Stream size                              : 1.49 GiB (7%)
Title                                    : Wonder.Woman.2017.3D.1080p.BluRay.Half-SBS.x264.DTS-HD.MA.7.1-FGT
Language                                 : English
Default                                  : No
Forced                                   : No

Audio #3
ID                                       : 4
Format                                   : AC-3
Format/Info                              : Audio Coding 3
Format settings, Endianness              : Big
Codec ID                                 : A_AC3
Duration                                 : 2 h 21 min
Bit rate mode                            : Constant
Bit rate                                 : 448 kb/s
Channel(s)                               : 6 channels
Channel positions                        : Front: L C R, Side: L R, LFE
Sampling rate                            : 48.0 kHz
Frame rate                               : 31.250 FPS (1536 spf)
Bit depth                                : 16 bits
Compression mode                         : Lossy
Stream size                              : 453 MiB (2%)
Title                                    : Wonder.Woman.2017.3D.1080p.BluRay.Half-SBS.x264.DTS-HD.MA.7.1-FGT
Language                                 : English
Service kind                             : Complete Main
Default                                  : No
Forced                                   : No

Audio #4
ID                                       : 5
Format                                   : AC-3
Format/Info                              : Audio Coding 3
Format settings, Endianness              : Big
Codec ID                                 : A_AC3
Duration                                 : 2 h 21 min
Bit rate mode                            : Constant
Bit rate                                 : 448 kb/s
Channel(s)                               : 6 channels
Channel positions                        : Front: L C R, Side: L R, LFE
Sampling rate                            : 48.0 kHz
Frame rate                               : 31.250 FPS (1536 spf)
Bit depth                                : 16 bits
Compression mode                         : Lossy
Stream size                              : 453 MiB (2%)
Title                                    : Wonder.Woman.2017.3D.1080p.BluRay.Half-SBS.x264.DTS-HD.MA.7.1-FGT
Language                                 : French
Service kind                             : Complete Main
Default                                  : No
Forced                                   : No

Audio #5
ID                                       : 6
Format                                   : AC-3
Format/Info                              : Audio Coding 3
Format settings, Endianness              : Big
Codec ID                                 : A_AC3
Duration                                 : 2 h 21 min
Bit rate mode                            : Constant
Bit rate                                 : 448 kb/s
Channel(s)                               : 6 channels
Channel positions                        : Front: L C R, Side: L R, LFE
Sampling rate                            : 48.0 kHz
Frame rate                               : 31.250 FPS (1536 spf)
Bit depth                                : 16 bits
Compression mode                         : Lossy
Stream size                              : 453 MiB (2%)
Title                                    : Wonder.Woman.2017.3D.1080p.BluRay.Half-SBS.x264.DTS-HD.MA.7.1-FGT
Language                                 : Italian
Service kind                             : Complete Main
Default                                  : No
Forced                                   : No

Audio #6
ID                                       : 7
Format                                   : AC-3
Format/Info                              : Audio Coding 3
Format settings, Endianness              : Big
Codec ID                                 : A_AC3
Duration                                 : 2 h 21 min
Bit rate mode                            : Constant
Bit rate                                 : 448 kb/s
Channel(s)                               : 6 channels
Channel positions                        : Front: L C R, Side: L R, LFE
Sampling rate                            : 48.0 kHz
Frame rate                               : 31.250 FPS (1536 spf)
Bit depth                                : 16 bits
Compression mode                         : Lossy
Stream size                              : 453 MiB (2%)
Title                                    : Wonder.Woman.2017.3D.1080p.BluRay.Half-SBS.x264.DTS-HD.MA.7.1-FGT
Language                                 : Spanish
Service kind                             : Complete Main
Default                                  : No
Forced                                   : No

Audio #7
ID                                       : 8
Format                                   : AC-3
Format/Info                              : Audio Coding 3
Format settings, Endianness              : Big
Codec ID                                 : A_AC3
Duration                                 : 2 h 21 min
Bit rate mode                            : Constant
Bit rate                                 : 448 kb/s
Channel(s)                               : 6 channels
Channel positions                        : Front: L C R, Side: L R, LFE
Sampling rate                            : 48.0 kHz
Frame rate                               : 31.250 FPS (1536 spf)
Bit depth                                : 16 bits
Compression mode                         : Lossy
Stream size                              : 453 MiB (2%)
Title                                    : Wonder.Woman.2017.3D.1080p.BluRay.Half-SBS.x264.DTS-HD.MA.7.1-FGT
Language                                 : Portuguese
Service kind                             : Complete Main
Default                                  : No
Forced                                   : No

Text #1
ID                                       : 9
Format                                   : PGS
Muxing mode                              : zlib
Codec ID                                 : S_HDMV/PGS
Codec ID/Info                            : Picture based subtitle format used on BDs/HD-DVDs
Title                                    : English-PGS
Language                                 : English
Default                                  : Yes
Forced                                   : No

Text #2
ID                                       : 10
Format                                   : PGS
Muxing mode                              : zlib
Codec ID                                 : S_HDMV/PGS
Codec ID/Info                            : Picture based subtitle format used on BDs/HD-DVDs
Title                                    : French-PGS
Language                                 : French
Default                                  : No
Forced                                   : No

Text #3
ID                                       : 11
Format                                   : PGS
Muxing mode                              : zlib
Codec ID                                 : S_HDMV/PGS
Codec ID/Info                            : Picture based subtitle format used on BDs/HD-DVDs
Title                                    : Italian-PGS
Language                                 : Italian
Default                                  : No
Forced                                   : No

Text #4
ID                                       : 12
Format                                   : PGS
Muxing mode                              : zlib
Codec ID                                 : S_HDMV/PGS
Codec ID/Info                            : Picture based subtitle format used on BDs/HD-DVDs
Title                                    : Spanish-PGS
Language                                 : Spanish
Default                                  : No
Forced                                   : No

Text #5
ID                                       : 13
Format                                   : PGS
Muxing mode                              : zlib
Codec ID                                 : S_HDMV/PGS
Codec ID/Info                            : Picture based subtitle format used on BDs/HD-DVDs
Title                                    : Portuguese-PGS
Language                                 : Portuguese
Default                                  : No
Forced                                   : No

Text #6
ID                                       : 14
Format                                   : PGS
Muxing mode                              : zlib
Codec ID                                 : S_HDMV/PGS
Codec ID/Info                            : Picture based subtitle format used on BDs/HD-DVDs
Title                                    : French-PGS
Language                                 : French
Default                                  : No
Forced                                   : No

Text #7
ID                                       : 15
Format                                   : PGS
Muxing mode                              : zlib
Codec ID                                 : S_HDMV/PGS
Codec ID/Info                            : Picture based subtitle format used on BDs/HD-DVDs
Title                                    : Italian-FORCED-PGS
Language                                 : Italian
Default                                  : No
Forced                                   : No

Text #8
ID                                       : 16
Format                                   : PGS
Muxing mode                              : zlib
Codec ID                                 : S_HDMV/PGS
Codec ID/Info                            : Picture based subtitle format used on BDs/HD-DVDs
Title                                    : Spanish-FORCED-PGS
Language                                 : Spanish
Default                                  : No
Forced                                   : No

Text #9
ID                                       : 17
Format                                   : PGS
Muxing mode                              : zlib
Codec ID                                 : S_HDMV/PGS
Codec ID/Info                            : Picture based subtitle format used on BDs/HD-DVDs
Title                                    : Portuguese-FORCED-PGS
Language                                 : Portuguese
Default                                  : No
Forced                                   : No

Menu
00:00:00.000                             : en01)00:00:00:000
00:10:26.917                             : en02)00:10:26:917
00:23:12.557                             : en03)00:23:12:557
00:33:10.738                             : en04)00:33:10:738
00:43:55.132                             : en05)00:43:55:132
00:54:25.553                             : en06)00:54:25:553
01:07:38.262                             : en07)01:07:38:262
01:22:30.195                             : en001:22:30:195
01:34:02.845                             : en09)01:34:02:845
01:45:37.998                             : en10)01:45:37:998
01:57:43.765                             : en11)01:57:43:765
02:10:41.416                             : en12)02:10:41:416

1b4cf39808304e33ddf17853f435c751.jpg 4348d35fd3de772b40590aef4c706a59.jpg 73210a85781bd21b120efdb3469af4c3.jpg a1647ea3e2de6ce54c1fc51af58d9819.jpg b490c375d3db067878aca6b81eac53ba.jpg bacd5b6cfb841d09ce25b6efaddbfb87.jpg

温馨提示:整治高清版块灌水行动开始了,请大家认真回复,尊重他人,提高自身素质,灌水将受重罚,谢谢!

游客,如果您要查看本帖隐藏内容请回复或点击我就看看,不说话!

发表于 2017-9-15 10:55 | 显示全部楼层
mark下,等会回复
回复 支持 反对

使用道具 举报

发表于 2017-9-15 11:01 | 显示全部楼层
必须顶上去。。。
回复 支持 反对

使用道具 举报

发表于 2017-9-15 11:06 | 显示全部楼层
下载看看
回复 支持 反对

使用道具 举报

发表于 2017-9-15 11:08 | 显示全部楼层
感谢楼主分享
回复 支持 反对

使用道具 举报

发表于 2017-9-15 11:26 | 显示全部楼层
都都都都低调低调顶顶顶顶顶顶顶顶顶多
回复 支持 反对

使用道具 举报

发表于 2017-9-15 11:27 | 显示全部楼层
mark下,等会回复
回复 支持 反对

使用道具 举报

发表于 2017-9-15 11:37 | 显示全部楼层
666666666666666666666666666666666
回复 支持 反对

使用道具 举报

发表于 2017-9-15 11:42 | 显示全部楼层
666666666666666666666
回复 支持 反对

使用道具 举报

发表于 2017-9-15 11:42 | 显示全部楼层
感谢分享
回复 支持 反对

使用道具 举报

使用高级回帖 (可批量传图、插入视频等)快速回复

您需要登录后才可以回帖 登录 | 注册加范币

本版积分规则   Ctrl + Enter 快速发布  

发帖时请遵守我国法律,网站会将有关你发帖内容、时间以及发帖IP地址等记录保留,只要接到合法请求,即会将信息提供给有关政府机构。
快速回复 返回顶部 返回列表